【4K】【10bit HDR】【DDP5.1】克劳斯:圣诞节的秘密 Klaus

参宿四今天还好吗 2023-2-1 1,004 2/1

【4K】【10bit HDR】【DDP5.1】克劳斯:圣诞节的秘密  Klaus

剧情简介

贾斯帕(詹森·舒瓦兹曼饰)被认为是邮政学院最差的学生,他驻扎在北极圈内的一个冰冻岛屿上,那里的当地人之间几乎不交流,更不用说写信了。当贾斯帕准备放弃之时,他找到了自己的盟友阿尔娃(当地的一名教师,拉什达·琼斯饰),并发现了克劳斯(奥斯卡奖得主 J·K·西蒙斯饰),克劳斯是一个神秘的木匠,独自住在一个满是手工玩具的小屋里。这几段不可思议的友谊让斯密伦斯堡又重新充满了欢声笑语,创造出了新的故事,这里有慷慨的邻居、神奇的传说和小心翼翼挂在烟囱上的长袜。《克劳斯:圣诞节的秘密》是一部节日喜剧动画片,由《神偷奶爸》联合创剧人塞尔希奥·巴勃罗斯担任导演,由琼·库萨克、威尔·萨索和诺曼·麦克唐纳徳联袂主演。

视频
编号 : 1
格式 : HEVC
格式/信息 : 高效视频编码
格式配置文件:主要10@L5@Main
HDR 格式 : SMPTE ST 2086, 兼容 HDR10
编解码器 ID : V_MPEGH/ISO/HEVC
持续时间 : 1小时 36分钟
比特率 : 7 006 kb/s
宽度 : 3 840 像素
高度 : 2 160 像素
显示宽高比 : 16:9
帧率模式:恒定
帧速率 : 24.000 FPS
色彩空间 : YUV
色度子采样:4:2:0(类型 2)
位深度:10位
位/(像素*帧) : 0.035
流大小 : 4.73 GiB (90%)
默认值 : 是
强制 : 否
颜色范围 : 有限
原色 : BT.2020
传输特性 : PQ
矩阵系数:BT.2020非常数
母版显示原色:显示器P3
母带显示亮度:最小:0.0001 cd/m2,最大:1000 cd/m2
最大内容光照水平 : 5483 cd/m2
最大平均帧光照水平 : 260 cd/m2

音频
编号 : 2
格式 : E-AC-3 JOC
格式/信息 : 具有联合对象编码的增强型 AC-3
商业名称 : 杜比数字增强与杜比全景声
编解码器 ID : A_EAC3
持续时间 : 1小时 38分钟
比特率模式:恒定
比特率 : 768 kb/s
通道 : 6 通道
频道布局 : L R C LFE LS RS
采样率 : 48.0 kHz
帧速率 : 31.250 帧/秒 (1536 SPF)
压缩模式:有损
流大小 : 540 MiB (10%)
语言 : 英语
服务种类 : 完整 主要
默认值 : 是
强制 : 否
复杂度指数 : 16
动态对象数量 : 15
床通道数:1通道
床通道配置 : LFE

文本 #1
编号 : 3
格式 : UTF-8
编解码器 ID : S_TEXT/UTF8
编解码器 ID/信息 : UTF-8 纯文本
持续时间 : 1小时 31分钟
比特率 : 59 b/s
元素数 : 1275
流大小 : 39.9 KiB (0%)
语言 : 英语
默认值 : 否
强制 : 否

文本 #2
编号 : 4
格式 : UTF-8
编解码器 ID : S_TEXT/UTF8
编解码器 ID/信息 : UTF-8 纯文本
持续时间 : 1小时 32分钟
比特率 : 73 b/s
元素数 : 1634
流大小 : 49.6 KiB (0%)
标题 : SDH
语言 : 英语
默认值 : 否
强制 : 否

文本 #3
编号 : 5
格式 : UTF-8
编解码器 ID : S_TEXT/UTF8
编解码器 ID/信息 : UTF-8 纯文本
持续时间 : 1小时 36分钟
比特率 : 87 b/s
元素数 : 1247
流大小 : 61.8 KiB (0%)
语言 : 阿拉伯语
默认值 : 否
强制 : 否

文本 #4
编号 : 6
格式 : UTF-8
编解码器 ID : S_TEXT/UTF8
编解码器 ID/信息 : UTF-8 纯文本
持续时间 : 1小时 36分钟
比特率 : 52 b/s
元素数 : 1159
流大小 : 36.8 KiB (0%)
语言 : 捷克语
默认值 : 否
强制 : 否

文本 #5
编号 : 7
格式 : UTF-8
编解码器 ID : S_TEXT/UTF8
编解码器 ID/信息 : UTF-8 纯文本
持续时间 : 1小时 36分钟
比特率 : 45 b/s
元素数 : 964
流大小 : 32.4 KiB (0%)
语言 : 丹麦语
默认值 : 否
强制 : 否

文本 #6
编号 : 8
格式 : UTF-8
编解码器 ID : S_TEXT/UTF8
编解码器 ID/信息 : UTF-8 纯文本
持续时间 : 1小时 29分钟
比特率 : 56 b/s
元素数 : 1044
流大小 : 37.1 KiB (0%)
语言 : 德语
默认值 : 否
强制 : 否

文本 #7
编号 : 9
格式 : UTF-8
编解码器 ID : S_TEXT/UTF8
编解码器 ID/信息 : UTF-8 纯文本
持续时间 : 1小时 36分钟
比特率 : 79 b/s
元素数 : 1241
流大小 : 56.5 KiB (0%)
语言 : 希腊语
默认值 : 否
强制 : 否

文本 #8
编号 : 10
格式 : UTF-8
编解码器 ID : S_TEXT/UTF8
编解码器 ID/信息 : UTF-8 纯文本
持续时间 : 1小时 29分钟
比特率 : 55 b/s
元素数 : 1239
流大小 : 36.5 KiB (0%)
语言 : 西班牙语
默认值 : 否
强制 : 否

文本 #9
编号 : 11
格式 : UTF-8
编解码器 ID : S_TEXT/UTF8
编解码器 ID/信息 : UTF-8 纯文本
持续时间 : 1小时 36分钟
比特率 : 51 b/s
元素数 : 1240
流大小 : 36.5 KiB (0%)
标题 : 欧洲
语言 : 西班牙语
默认值 : 否
强制 : 否

文本 #10
编号 : 12
格式 : UTF-8
编解码器 ID : S_TEXT/UTF8
编解码器 ID/信息 : UTF-8 纯文本
持续时间 : 1小时 36分钟
比特率 : 49 b/s
元素数 : 1016
流大小 : 34.8 KiB (0%)
语言 : 芬兰语
默认值 : 否
强制 : 否

文本 #11
编号 : 13
格式 : UTF-8
编解码器 ID : S_TEXT/UTF8
编解码器 ID/信息 : UTF-8 纯文本
持续时间 : 1小时 36分钟
比特率 : 50 b/s
元素数 : 1192
流大小 : 35.8 KiB (0%)
语言 : 法语
默认值 : 否
强制 : 否

文本 #12
编号 : 14
格式 : UTF-8
编解码器 ID : S_TEXT/UTF8
编解码器 ID/信息 : UTF-8 纯文本
持续时间 : 1小时 36分钟
比特率 : 80 b/s
元素数 : 1232
流大小 : 57.0 KiB (0%)
语言 : 希伯来语
默认值 : 否
强制 : 否

文本 #13
编号 : 15
格式 : UTF-8
编解码器 ID : S_TEXT/UTF8
编解码器 ID/信息 : UTF-8 纯文本
持续时间 : 1小时 36分钟
比特率 : 42 b/s
元素数 : 893
流大小 : 30.2 KiB (0%)
语言 : 克罗地亚语
默认值 : 否
强制 : 否

文本 #14
编号 : 16
格式 : UTF-8
编解码器 ID : S_TEXT/UTF8
编解码器 ID/信息 : UTF-8 纯文本
持续时间 : 1小时 36分钟
比特率 : 48 b/s
元素数 : 1118
流大小 : 34.0 KiB (0%)
语言 : 匈牙利语
默认值 : 否
强制 : 否

Text #15
ID : 17
Format : UTF-8
Codec ID : S_TEXT/UTF8
Codec ID/Info : UTF-8 Plain Text
Duration : 1 h 36 min
Bit rate : 51 b/s
Count of elements : 1221
Stream size : 36.6 KiB (0%)
Language : Indonesian
Default : No
Forced : No

Text #16
ID : 18
Format : UTF-8
Codec ID : S_TEXT/UTF8
Codec ID/Info : UTF-8 Plain Text
Duration : 1 h 36 min
Bit rate : 44 b/s
Count of elements : 1041
Stream size : 31.8 KiB (0%)
Language : Italian
Default : No
Forced : No

Text #17
ID : 19
Format : UTF-8
Codec ID : S_TEXT/UTF8
Codec ID/Info : UTF-8 Plain Text
Duration : 1 h 36 min
Bit rate : 47 b/s
Count of elements : 1090
Stream size : 33.5 KiB (0%)
Language : Japanese
Default : No
Forced : No

Text #18
ID : 20
Format : UTF-8
Codec ID : S_TEXT/UTF8
Codec ID/Info : UTF-8 Plain Text
Duration : 1 h 29 min
Bit rate : 76 b/s
Count of elements : 1254
Stream size : 50.2 KiB (0%)
Language : Korean
Default : No
Forced : No

Text #19
ID : 21
Format : UTF-8
Codec ID : S_TEXT/UTF8
Codec ID/Info : UTF-8 Plain Text
Duration : 1 h 36 min
Bit rate : 49 b/s
Count of elements : 1158
Stream size : 34.8 KiB (0%)
Language : Malay
Default : No
Forced : No

Text #20
ID : 22
Format : UTF-8
Codec ID : S_TEXT/UTF8
Codec ID/Info : UTF-8 Plain Text
Duration : 1 h 36 min
Bit rate : 46 b/s
Count of elements : 968
Stream size : 33.1 KiB (0%)
Language : Norwegian Bokmal
Default : No
Forced : No

Text #21
ID : 23
Format : UTF-8
Codec ID : S_TEXT/UTF8
Codec ID/Info : UTF-8 Plain Text
Duration : 1 h 36 min
Bit rate : 48 b/s
Count of elements : 1086
Stream size : 34.3 KiB (0%)
Language : Dutch
Default : No
Forced : No

Text #22
ID : 24
Format : UTF-8
Codec ID : S_TEXT/UTF8
Codec ID/Info : UTF-8 Plain Text
Duration : 1 h 36 min
比特率 : 45 b/s
元素数 : 1015
流大小 : 32.0 KiB (0%)
语言 : 波兰语
默认值 : 否
强制 : 否

文本 #23
编号 : 25
格式 : UTF-8
编解码器 ID : S_TEXT/UTF8
编解码器 ID/信息 : UTF-8 纯文本
持续时间 : 1小时 36分钟
比特率 : 49 b/s
元素数 : 1128
流大小 : 34.9 KiB (0%)
语言 : 葡萄牙语
默认值 : 否
强制 : 否

文本 #24
编号 : 26
格式 : UTF-8
编解码器 ID : S_TEXT/UTF8
编解码器 ID/信息 : UTF-8 纯文本
持续时间 : 1小时 36分钟
比特率 : 50 b/s
元素数 : 1241
流大小 : 35.2 KiB (0%)
标题 : 巴西
语言 : 葡萄牙语
默认值 : 否
强制 : 否

文本 #25
编号 : 27
格式 : UTF-8
编解码器 ID : S_TEXT/UTF8
编解码器 ID/信息 : UTF-8 纯文本
持续时间 : 1小时 36分钟
比特率 : 58 b/s
元素数 : 1226
流大小 : 41.5 KiB (0%)
语言 : 罗马尼亚语
默认值 : 否
强制 : 否

文本 #26
编号 : 28
格式 : UTF-8
编解码器 ID : S_TEXT/UTF8
编解码器 ID/信息 : UTF-8 纯文本
持续时间 : 1小时 36分钟
比特率 : 81 b/s
元素数 : 1219
流大小 : 57.8 KiB (0%)
语言 : 俄语
默认值 : 否
强制 : 否

文本 #27
编号 : 29
格式 : UTF-8
编解码器 ID : S_TEXT/UTF8
编解码器 ID/信息 : UTF-8 纯文本
持续时间 : 1小时 36分钟
比特率 : 48 b/s
元素数 : 952
流大小 : 33.9 KiB (0%)
语言 : 瑞典语
默认值 : 否
强制 : 否

文本 #28
编号 : 30
格式 : UTF-8
编解码器 ID : S_TEXT/UTF8
编解码器 ID/信息 : UTF-8 纯文本
持续时间 : 1小时 36分钟
比特率 : 138 b/s
元素数 : 1252
流大小 : 98.0 KiB (0%)
语言 : 泰语
默认值 : 否
强制 : 否

文本 #29
编号 : 31
格式 : UTF-8
编解码器 ID : S_TEXT/UTF8
编解码器 ID/信息 : UTF-8 纯文本
持续时间 : 1小时 36分钟
比特率 : 51 b/s
元素数 : 1222
流大小 : 36.2 KiB (0%)
语言 : 土耳其语
默认值 : 否
强制 : 否

文本 #30
编号 : 32
格式 : UTF-8
编解码器 ID : S_TEXT/UTF8
编解码器 ID/信息 : UTF-8 纯文本
持续时间 : 1小时 36分钟
比特率 : 79 b/s
元素数 : 1224
流大小 : 56.4 KiB (0%)
语言 : 乌克兰语
默认值 : 否
强制 : 否

文本 #31
编号 : 33
格式 : UTF-8
编解码器 ID : S_TEXT/UTF8
编解码器 ID/信息 : UTF-8 纯文本
持续时间 : 1小时 36分钟
比特率 : 66 b/s
元素数 : 1216
流大小 : 46.7 KiB (0%)
语言 : 越南语
默认值 : 否
强制 : 否

文本 #32
编号 : 34
格式 : UTF-8
编解码器 ID : S_TEXT/UTF8
编解码器 ID/信息 : UTF-8 纯文本
持续时间 : 1小时 36分钟
比特率 : 54 b/s
元素数 : 1251
流大小 : 38.3 KiB (0%)
标题 : 简体
语言 : 中文
默认值 : 否
强制 : 否

文本 #33
编号 : 35
格式 : UTF-8
编解码器 ID : S_TEXT/UTF8
编解码器 ID/信息 : UTF-8 纯文本
持续时间 : 1小时 36分钟
比特率 : 53 b/s
元素数 : 1311
流大小 : 38.0 KiB (0%)
标题 : 繁体
语言 : 中文
默认值 : 否
强制 : 否

菜单
01:32:50.000 : en:学分

云盘下载链接:

温馨提示:此处内容需要评论本文后才能查看。(评论无需注册)

本站服务器下载(需要赞助):

本文隐藏内容 登陆 后才可以浏览
- THE END -

参宿四今天还好吗

3月26日00:30

最后修改:2023年3月26日
2

种子内容转载自https://www.4ksj.com/thread-67707-1-1.html#pid2151526,如有侵权请联系管理员删除!

共有 1 条评论